Hide All IP 2018 04 07
Download
litoral-2008.info - The Largest Bittorent System Login   |    Register
Latest Articles
Most searched
Hot torrents
Movie Torrents
Hot torrents
TV Torrents
View Torrent Info: Arrow.S06E18.HDTV.x264-SVA[eztv]
View Torrent Info: Lucifer.S03E20.HDTV.x264-KILLERS[eztv]
View Torrent Info: Fear.the.Walking.Dead.S04E01.HDTV.x264-SVA[eztv]
View Torrent Info: Lethal.Weapon.S02E18.WEB.x264-TBS[eztv]
View Torrent Info: Supernatural.S13E18.HDTV.x264-SVA[eztv]
View Torrent Info: Young.Sheldon.S01E18.HDTV.x264-SVA[eztv]
View Torrent Info: Billions.S03E04.WEBRip.x264-PBS[eztv]
View Torrent Info: Black.Lightning.S01E12.HDTV.x264-SVA[eztv]
View Torrent Info: Brooklyn.Nine-Nine.S05E16.WEB.x264-TBS[eztv]
View Torrent Info: Homeland.S07E10.WEB.H264-DEFLATE[eztv]
litoral-2008.info > Categories > Movies torrents > h.264/x264 torrents


Browse Movies torrents

Rampage.2018.720p.NEW.HDCAM.X264.HQMic.LLG torrent



Download torrent: Download Rampage.2018.720p.NEW.HDCAM.X264.HQMic.LLG torrent Magnet link Bookmark Torrent: Rampage.2018.720p.NEW.HDCAM.X264.HQMic.LLG Rampage.2018.720p.NEW.HDCAM.X264.HQMic.LLG torrent | if not working, try instead: Magnet Link
Info hash: 8394C7DFB862E1E5B26007BBA8837EB2B44ACC5D
Category: Categories > Movies torrents > h.264/x264 torrents
Trackers:
3    View all torrent trackers >
Health:
 seeds: 0 ,  leechers: 0 |  Update >
Torrent language:  
Total Size: 1.20 GB
Torrent status: Added by trusted uploader Added by trusted uploader Trusted Uploader Site Friend Superman Sun
Uploader: Trusted Uploader Site Friend Superman Sun
Torrent added: 2018-04-16 22:17:50
 

Download Rampage.2018.720p.NEW.HDCAM.X264.HQMic.LLG torrent if not working, try downloading torrent using Download Rampage.2018.720p.NEW.HDCAM.X264.HQMic.LLG via Magnet Link




Torrent Description





******************************Thumbnail:**********************



******************************Screenshots:********************

Screenshot 1

Screenshot 2

Screenshot 3

Screenshot 4

Screenshot 5

Screenshot 6

Screenshot 7

Screenshot 8

Screenshot 9

Screenshot 0

**************************************************************

Complete name : Rampage.2018.720p.NEW.HDCAM.X264.HQMic.LLG.mp4
Format : MPEG-4
Format profile : Base Media
Codec ID : isom (isom/iso2/avc1/mp41)
File size : 1.14 GiB
Duration : 1 h 40 min
Overall bit rate : 1 636 kb/s
Writing application : Lavf57.56.101

Video
ID : 1
Format : AVC
Format/Info : Advanced Video Codec
Format profile : [email protected]
Format settings : CABAC / 4 Ref Frames
Format settings, CABAC : Yes
Format settings, RefFrames : 4 frames
Codec ID : avc1
Codec ID/Info : Advanced Video Coding
Duration : 1 h 40 min
Bit rate : 1 500 kb/s
Width : 1 280 pixels
Height : 608 pixels
Display aspect ratio : 2.105
Frame rate mode : Constant
Frame rate : 23.976 (23976/1000) FPS
Color space : YUV
Chroma subsampling : 4:2:0
Bit depth : 8 bits
Scan type : Progressive
Bits/(Pixel*Frame) : 0.080
Stream size : 1.05 GiB (92%)

Audio
ID : 2
Format : MPEG Audio
Format version : Version 1
Format profile : Layer 3
Format settings : Joint stereo / MS Stereo
Codec ID : mp4a-6B
Duration : 1 h 40 min
Bit rate mode : Constant
Bit rate : 128 kb/s
Channel(s) : 2 channels
Sampling rate : 44.1 kHz
Compression mode : Lossy
Stream size : 91.6 MiB (8%)
Writing library : LAME3.99.5
Default : Yes
Alternate group : 1



#LifeLongg -> To avoid fakes, ALWAYS check that the torrent was added on litoral-2008.info by LifeLongg

http://litoral-2008.info/



Download Rampage.2018.720p.NEW.HDCAM.X264.HQMic.LLG torrent


Comments (please add your comment)
No comments



Home - Browse Torrents - Upload Torrent - Stat - Forum - FAQ - Login
litoral-2008.info is in compliance with copyrights
2006-2018 litoral-2008.info