Circus HalliGalli
Episode 03
litoral-2008.info - The Largest Bittorent System Login   |    Register
Latest Articles
Most searched
Hot torrents
Movie Torrents
Hot torrents
TV Torrents
View Torrent Info: Arrow.S06E18.HDTV.x264-SVA[eztv]
View Torrent Info: Lucifer.S03E20.HDTV.x264-KILLERS[eztv]
View Torrent Info: Lethal.Weapon.S02E18.WEB.x264-TBS[eztv]
View Torrent Info: Fear.the.Walking.Dead.S04E01.HDTV.x264-SVA[eztv]
View Torrent Info: Supernatural.S13E18.HDTV.x264-SVA[eztv]
View Torrent Info: Young.Sheldon.S01E18.HDTV.x264-SVA[eztv]
View Torrent Info: Billions.S03E04.WEBRip.x264-PBS[eztv]
View Torrent Info: Black.Lightning.S01E12.HDTV.x264-SVA[eztv]
View Torrent Info: Brooklyn.Nine-Nine.S05E16.WEB.x264-TBS[eztv]
View Torrent Info: Timeless.S02E05.HDTV.x264-KILLERS[eztv]
litoral-2008.info > Categories > Movies torrents > HD torrents


Browse Movies torrents

18+.RED.SPARROW.2018.720p.HC.HDRip.AC3.LLG torrent



Download torrent: Download 18+.RED.SPARROW.2018.720p.HC.HDRip.AC3.LLG torrent Magnet link Bookmark Torrent: 18+.RED.SPARROW.2018.720p.HC.HDRip.AC3.LLG 18+.RED.SPARROW.2018.720p.HC.HDRip.AC3.LLG torrent | if not working, try instead: Magnet Link
Info hash: D49E2BD0CD151245D46299F9992FAAE609589397
Category: Categories > Movies torrents > HD torrents
Trackers:
3    View all torrent trackers >
Health:
 seeds: 87 ,  leechers: 33 |  Update >
Torrent language:  
Total Size: 1.10 GB
Torrent status: Added by trusted uploader Added by trusted uploader Trusted Uploader Site Friend Superman Sun
Uploader: Trusted Uploader Site Friend Superman Sun
Torrent added: 2018-04-16 13:47:48
 

Download 18+.RED.SPARROW.2018.720p.HC.HDRip.AC3.LLG torrent if not working, try downloading torrent using Download 18+.RED.SPARROW.2018.720p.HC.HDRip.AC3.LLG via Magnet Link




Torrent Description





******************************Thumbnail:**********************



******************************Screenshots:********************

Screenshot 1

Screenshot 2

Screenshot 3

Screenshot 4

Screenshot 5

Screenshot 6

Screenshot 7

Screenshot 8

Screenshot 9

Screenshot 0

**************************************************************

Complete name : 18+.RED.SPARROW.2018.720p.HC.HDRip.AC3.LLG.mp4
Format : MPEG-4
Format profile : Base Media
Codec ID : isom (isom/iso2/avc1/mp41)
File size : 1.09 GiB
Duration : 2 h 15 min
Overall bit rate : 1 148 kb/s
Writing application : Lavf57.56.101

Video
ID : 1
Format : AVC
Format/Info : Advanced Video Codec
Format profile : [email protected]
Format settings : CABAC / 4 Ref Frames
Format settings, CABAC : Yes
Format settings, RefFrames : 4 frames
Codec ID : avc1
Codec ID/Info : Advanced Video Coding
Duration : 2 h 15 min
Bit rate : 900 kb/s
Width : 1 280 pixels
Height : 720 pixels
Display aspect ratio : 2.40:1
Original display aspect ratio : 2.40:1
Frame rate mode : Constant
Frame rate : 29.970 (29970/1000) FPS
Color space : YUV
Chroma subsampling : 4:2:0
Bit depth : 8 bits
Scan type : Progressive
Bits/(Pixel*Frame) : 0.033
Stream size : 861 MiB (77%)

Audio
ID : 2
Format : AC-3
Format/Info : Audio Coding 3
Codec ID : ac-3
Duration : 2 h 15 min
Bit rate mode : Constant
Bit rate : 256 kb/s
Channel(s) : 2 channels
Channel positions : Front: L R
Sampling rate : 48.0 kHz
Frame rate : 31.250 FPS (1536 SPF)
Bit depth : 16 bits
Compression mode : Lossy
Stream size : 249 MiB (22%)
Language : English
Service kind : Complete Main
Default : Yes
Alternate group : 1



#LifeLongg -> To avoid fakes, ALWAYS check that the torrent was added on litoral-2008.info by LifeLongg

http://litoral-2008.info/



Download 18+.RED.SPARROW.2018.720p.HC.HDRip.AC3.LLG torrent


Comments (please add your comment)
No comments



Home - Browse Torrents - Upload Torrent - Stat - Forum - FAQ - Login
litoral-2008.info is in compliance with copyrights
2006-2018 litoral-2008.info