The Billionaire's Bite
Boom for Real: The Late Teenage Years of Jean-Michel Basquiat
litoral-2008.info - The Largest Bittorent System Login   |    Register
Latest Articles
Most searched
Hot torrents
Movie Torrents
Hot torrents
TV Torrents
View Torrent Info: Arrow.S06E18.HDTV.x264-SVA[eztv]
View Torrent Info: Lucifer.S03E20.HDTV.x264-KILLERS[eztv]
View Torrent Info: Lethal.Weapon.S02E18.WEB.x264-TBS[eztv]
View Torrent Info: Fear.the.Walking.Dead.S04E01.HDTV.x264-SVA[eztv]
View Torrent Info: Supernatural.S13E18.HDTV.x264-SVA[eztv]
View Torrent Info: Young.Sheldon.S01E18.HDTV.x264-SVA[eztv]
View Torrent Info: Billions.S03E04.WEBRip.x264-PBS[eztv]
View Torrent Info: Black.Lightning.S01E12.HDTV.x264-SVA[eztv]
View Torrent Info: Brooklyn.Nine-Nine.S05E16.WEB.x264-TBS[eztv]
View Torrent Info: Timeless.S02E05.HDTV.x264-KILLERS[eztv]
litoral-2008.info > Categories > Movies torrents > Dubbed /Dual Audio torrents


Browse Movies torrents

Lajja (2016) Hindi Dubbed 720p HDRip x264 AAC [ MovCR] torrent



Download torrent: Download Lajja (2016) Hindi Dubbed 720p HDRip x264 AAC [ MovCR] torrent Magnet link Bookmark Torrent: Lajja (2016) Hindi Dubbed 720p HDRip x264 AAC [ MovCR] Lajja (2016) Hindi Dubbed 720p HDRip x264 AAC [ MovCR] torrent | if not working, try instead: Magnet Link
Info hash: 15C66E79C8585897634EA01AF4DF194AF82132A5
Category: Categories > Movies torrents > Dubbed /Dual Audio torrents
Trackers:
29    View all torrent trackers >
Health:
 seeds: 12 ,  leechers: 2 |  Update >
Total Size: 947.40 MB
Torrent status: Added by trusted uploader Added by trusted uploader Trusted Uploader Site Friend Superman Sun
Uploader: Trusted Uploader Site Friend Superman Sun
Torrent added: 2018-04-16 13:46:31
 

Download Lajja (2016) Hindi Dubbed 720p HDRip x264 AAC [ MovCR] torrent if not working, try downloading torrent using Download Lajja (2016) Hindi Dubbed 720p HDRip x264 AAC [ MovCR] via Magnet Link




Torrent Description

Visit www.movcr.com

Lajja (2016) Hindi Dubbed 720p HDRip x264 AAC [ MovCR]

http://www.imdb.com/title/tt5465308/



General
Complete name : [www.MovCR.com] Lajja (2016) Hindi Dubbed 720p HDRip x264 AAC [ MovCR]\www.MovCR.com - Lajja (2016) Hindi Dubbed 720p HDRip x264 AAC [ MovCR].mkv
Format : Matroska
Format version : Version 4 / Version 2
File size : 853 MiB
Duration : 2 h 17 min
Overall bit rate : 866 kb/s
Movie name : www.MovCR.com
Encoded date : UTC 2018-04-16 10:48:58
Writing application : mkvmerge v9.5.0 ('Quiet Fire') 64bit
Writing library : libebml v1.3.4 + libmatroska v1.4.5 / IDMmkvlib0.1
Language : und

Video
ID : 1
Format : VP9
Codec ID : V_VP9
Duration : 2 h 17 min
Bit rate : 720 kb/s
Width : 1 280 pixels
Height : 720 pixels
Display aspect ratio : 16:9
Frame rate mode : Constant
Frame rate : 24.000 FPS
Bits/(Pixel*Frame) : 0.033
Stream size : 709 MiB (83%)
Title : www.MovCR.com
Default : Yes
Forced : No

Audio
ID : 2
Format : Opus
Codec ID : A_OPUS
Duration : 2 h 17 min
Bit rate : 143 kb/s
Channel(s) : 2 channels
Channel positions : Front: L R
Sampling rate : 48.0 kHz
Frame rate : 50.000 FPS (960 SPF)
Compression mode : Lossy
Stream size : 141 MiB (17%)
Title : www.MovCR.com
Default : Yes
Forced : No













#IcTv -> To avoid fakes, ALWAYS check that the torrent was added on litoral-2008.info by IcTv

http://litoral-2008.info/



Download Lajja (2016) Hindi Dubbed 720p HDRip x264 AAC [ MovCR] torrent


Comments (please add your comment)
No comments



Home - Browse Torrents - Upload Torrent - Stat - Forum - FAQ - Login
litoral-2008.info is in compliance with copyrights
2006-2018 litoral-2008.info