Baby Steps 2 Sub Ita Streaming & Download
Top IMDb
litoral-2008.info - The Largest Bittorent System Login   |    Register
Latest Articles
Most searched
Hot torrents
Movie Torrents
Hot torrents
TV Torrents
View Torrent Info: Arrow.S06E18.HDTV.x264-SVA[eztv]
View Torrent Info: Lethal.Weapon.S02E18.WEB.x264-TBS[eztv]
View Torrent Info: Supernatural.S13E18.HDTV.x264-SVA[eztv]
View Torrent Info: Young.Sheldon.S01E18.HDTV.x264-SVA[eztv]
View Torrent Info: Black.Lightning.S01E12.HDTV.x264-SVA[eztv]
View Torrent Info: Hawaii.Five-0.2010.S08E20.HDTV.x264-LOL[eztv]
View Torrent Info: Scandal.US.S07E17.HDTV.x264-SVA[eztv]
View Torrent Info: DCs.Legends.of.Tomorrow.S03E18.HDTV.x264-SVA[eztv]
View Torrent Info: Gotham.S04E18.WEB.x264-TBS[eztv]
View Torrent Info: Chicago.Fire.S06E18.HDTV.x264-SVA[eztv]
litoral-2008.info > Categories > Movies torrents > Dubbed /Dual Audio torrents


Browse Movies torrents

Broken City (2013) Dual Audio Hindi 720p BluRay 900MB ESubs @ KatMaster torrent



Download torrent: Download Broken City (2013) Dual Audio Hindi 720p BluRay 900MB ESubs @ KatMaster torrent Magnet link Bookmark Torrent: Broken City (2013) Dual Audio Hindi 720p BluRay 900MB ESubs @ KatMaster Broken City (2013) Dual Audio Hindi 720p BluRay 900MB ESubs @ KatMaster torrent | if not working, try instead: Magnet Link
Info hash: 57D3B7E5458E17258664C56026EDECACF70FFD8C
Category: Categories > Movies torrents > Dubbed /Dual Audio torrents
Trackers:
13    View all torrent trackers >
Health:
 seeds: 0 ,  leechers: 0 |  Update >
Total Size: 924.10 MB
Torrent status: Added by trusted uploader Added by trusted uploader Trusted Uploader Site Friend Superman Sun
Uploader: Trusted Uploader Site Friend Superman Sun
Torrent added: 2018-04-15 13:41:46
 

Download Broken City (2013) Dual Audio Hindi 720p BluRay 900MB ESubs @ KatMaster torrent if not working, try downloading torrent using Download Broken City (2013) Dual Audio Hindi 720p BluRay 900MB ESubs @ KatMaster via Magnet Link




Torrent Description



Code:

[FORMAT]:…………………….[ Matroska
[ENCODER]:…………..[ KatMaster
[THANKS TO]:…………………..[ TMV





Movie Info:

Genres: Action, Crime, Drama
Directed by: Allen Hughes
Writer: Brian Tucker
Stars Cast: Mark Wahlberg, Russell Crowe, Catherine Zeta-Jones
IMDb: http://www.imdb.com/title/tt1235522/
Language: Hindi + English

Video
ID : 1
Format : AVC
Format/Info : Advanced Video Codec
Format profile : [email protected]
Format settings : CABAC / 12 Ref Frames
Format settings, CABAC : Yes
Format settings, ReFrames : 12 frames
Codec ID : V_MPEG4/ISO/AVC
Duration : 1 h 48 min
Bit rate : 994 kb/s
Width : 1 280 pixels
Height : 528 pixels
Display aspect ratio : 2.40:1
Frame rate mode : Constant
Frame rate : 23.976 (24000/1001) FPS
Color space : YUV
Chroma subsampling : 4:2:0
Bit depth : 8 bits
Scan type : Progressive
Bits/(Pixel*Frame) : 0.061
Stream size : 772 MiB (84%)

Audio #1 (Hindi)
ID : 2
Format : MPEG Audio
Format version : Version 1
Format profile : Layer 3
Format settings : Joint stereo / MS Stereo
Codec ID : A_MPEG/L3
Codec ID/Hint : MP3
Duration : 1 h 48 min
Bit rate mode : Variable
Bit rate : 96.0 kb/s
Channel(s) : 2 channels
Sampling rate : 48.0 kHz
Frame rate : 41.667 FPS (1152 SPF)
Compression mode : Lossy
Stream size : 75.5 MiB (8%)

Audio #2 (English)
ID : 3
Format : AAC
Format/Info : Advanced Audio Codec
Format profile : LC
Codec ID : A_AAC-2
Duration : 1 h 48 min
Bit rate : 96.0 kb/s
Channel(s) : 2 channels
Channel positions : Front: L R
Sampling rate : 48.0 kHz
Frame rate : 46.875 FPS (1024 SPF)
Compression mode : Lossy
Stream size : 74.6 MiB (8%)

Screenshots:








#KatMaster -> To avoid fakes, ALWAYS check that the torrent was added on litoral-2008.info by KatMaster

http://litoral-2008.info/



Download Broken City (2013) Dual Audio Hindi 720p BluRay 900MB ESubs @ KatMaster torrent


Comments (please add your comment)
No comments



Home - Browse Torrents - Upload Torrent - Stat - Forum - FAQ - Login
litoral-2008.info is in compliance with copyrights
2006-2018 litoral-2008.info