Náš malovaný prezident
Çukur 7.Bölüm izle
litoral-2008.info - The Largest Bittorent System Login   |    Register
Latest Articles
Most searched
Hot torrents
Movie Torrents
Hot torrents
TV Torrents
View Torrent Info: Arrow.S06E18.HDTV.x264-SVA[eztv]
View Torrent Info: Lethal.Weapon.S02E18.WEB.x264-TBS[eztv]
View Torrent Info: Supernatural.S13E18.HDTV.x264-SVA[eztv]
View Torrent Info: Young.Sheldon.S01E18.HDTV.x264-SVA[eztv]
View Torrent Info: Black.Lightning.S01E12.HDTV.x264-SVA[eztv]
View Torrent Info: Hawaii.Five-0.2010.S08E20.HDTV.x264-LOL[eztv]
View Torrent Info: Scandal.US.S07E17.HDTV.x264-SVA[eztv]
View Torrent Info: DCs.Legends.of.Tomorrow.S03E18.HDTV.x264-SVA[eztv]
View Torrent Info: Gotham.S04E18.WEB.x264-TBS[eztv]
View Torrent Info: Chicago.Fire.S06E18.HDTV.x264-SVA[eztv]
litoral-2008.info > Categories > Movies torrents > Dubbed /Dual Audio torrents


Browse Movies torrents

The Shape of Water 2017 1080p Bluray Dual Audio Hindi DD 5.1 English 6CH MAVI torrent



Download torrent: Download The Shape of Water 2017 1080p Bluray Dual Audio Hindi DD 5.1 English 6CH MAVI torrent Magnet link Bookmark Torrent: The Shape of Water 2017 1080p Bluray Dual Audio Hindi DD 5.1 English 6CH MAVI The Shape of Water 2017 1080p Bluray Dual Audio Hindi DD 5.1 English 6CH MAVI torrent | if not working, try instead: Magnet Link
Info hash: 8A901A1FBD6EF10FD1EA8D868B2B0A3B6A9C722F
Category: Categories > Movies torrents > Dubbed /Dual Audio torrents
Trackers:
21    View all torrent trackers >
Health:
 seeds: 1 ,  leechers: 1 |  Update >
Total Size: 5.30 GB
Torrent status: Added by trusted uploader Added by trusted uploader Trusted Uploader Site Friend Superman Sun
Uploader: Trusted Uploader Site Friend Superman Sun
Torrent added: 2018-04-15 11:56:48
 

Download The Shape of Water 2017 1080p Bluray Dual Audio Hindi DD 5.1 English 6CH MAVI torrent if not working, try downloading torrent using Download The Shape of Water 2017 1080p Bluray Dual Audio Hindi DD 5.1 English 6CH MAVI via Magnet Link




Torrent Description




Movie Encode From Full BD/BDREMUX

The Shape of Water 2017 1080p Bluray Dual Audio Hindi DD 5.1 English 6CH MAVI

Join Us Now FaceBook

Org Bluray Audio Source (Mr Rajput Thanks For Audio)

Video
ID : 1
Format : AVC
Format/Info : Advanced Video Codec
Format profile : [email protected]
Format settings : CABAC / 4 Ref Frames
Format settings, CABAC : Yes
Format settings, RefFrames : 4 frames
Codec ID : V_MPEG4/ISO/AVC
Duration : 2 h 3 min
Bit rate : 5 000 kb/s
Width : 1 920 pixels
Height : 1 036 pixels
Display aspect ratio : 1.85:1
Frame rate mode : Constant
Frame rate : 23.976 (24000/1001) FPS
Color space : YUV
Chroma subsampling : 4:2:0
Bit depth : 8 bits
Scan type : Progressive
Bits/(Pixel*Frame) : 0.105
Stream size : 4.31 GiB (81%)
Writing library : x264 core 155 r2901 7d0ff22
Language : English
Default : Yes
Forced : No
Color range : Limited
Color primaries : Generic film
Transfer characteristics : BT.709
Matrix coefficients : BT.709

Audio #1
ID : 2
Format : AC-3
Format/Info : Audio Coding 3
Codec ID : A_AC3
Duration : 2 h 3 min
Bit rate mode : Constant
Bit rate : 448 kb/s
Channel(s) : 6 channels
Channel positions : Front: L C R, Side: L R, LFE
Sampling rate : 48.0 kHz
Frame rate : 31.250 FPS (1536 SPF)
Bit depth : 16 bits
Compression mode : Lossy
Stream size : 395 MiB (7%)
Language : Hindi
Service kind : Complete Main
Default : Yes
Forced : No

Audio #2
ID : 3
Format : AC-3
Format/Info : Audio Coding 3
Codec ID : A_AC3
Duration : 2 h 3 min
Bit rate mode : Constant
Bit rate : 640 kb/s
Channel(s) : 6 channels
Channel positions : Front: L C R, Side: L R, LFE
Sampling rate : 48.0 kHz
Frame rate : 31.250 FPS (1536 SPF)
Bit depth : 16 bits
Compression mode : Lossy
Stream size : 565 MiB (10%)
Language : English
Service kind : Complete Main
Default : No
Forced : No

Text #1
ID : 4
Format : PGS
Codec ID : S_HDMV/PGS
Codec ID/Info : Picture based subtitle format used on BDs/HD-DVDs
Duration : 2 h 1 min
Bit rate : 23.2 kb/s
Count of elements : 2825
Stream size : 20.1 MiB (0%)
Language : Hindi
Default : Yes
Forced : No

Text #2
ID : 5
Format : PGS
Codec ID : S_HDMV/PGS
Codec ID/Info : Picture based subtitle format used on BDs/HD-DVDs
Duration : 1 h 47 min
Bit rate : 1 234 b/s
Count of elements : 338
Stream size : 971 KiB (0%)
Title : Forced
Language : English
Default : No
Forced : No

Text #3
ID : 6
Format : PGS
Codec ID : S_HDMV/PGS
Codec ID/Info : Picture based subtitle format used on BDs/HD-DVDs
Duration : 2 h 2 min
Bit rate : 21.7 kb/s
Count of elements : 3856
Stream size : 19.1 MiB (0%)
Language : English
Default : No
Forced : No

Menu
00:00:00.000 : en:Chapter 01
00:06:24.467 : en:Chapter 02
00:12:54.774 : en:Chapter 03
00:18:32.986 : en:Chapter 04
00:23:45.590 : en:Chapter 05
00:29:39.652 : en:Chapter 06
00:35:29.836 : en:Chapter 07
00:39:30.534 : en:Chapter 08
00:42:42.434 : en:Chapter 09
00:48:34.036 : en:Chapter 10
00:52:26.935 : en:Chapter 11
00:57:30.196 : en:Chapter 12
01:01:52.542 : en:Chapter 13
01:07:35.551 : en:Chapter 14
01:12:13.495 : en:Chapter 15
01:17:50.791 : en:Chapter 16
01:21:17.122 : en:Chapter 17
01:26:05.910 : en:Chapter 18
01:32:48.479 : en:Chapter 19
01:37:18.749 : en:Chapter 20
01:43:24.114 : en:Chapter 21
01:46:06.610 : en:Chapter 22
01:50:31.666 : en:Chapter 23
01:58:34.857 : en:Chapter 24

















#sujit2324 -> To avoid fakes, ALWAYS check that the torrent was added on litoral-2008.info by sujit2324

http://litoral-2008.info/



Download The Shape of Water 2017 1080p Bluray Dual Audio Hindi DD 5.1 English 6CH MAVI torrent


Comments (please add your comment)
No comments



Home - Browse Torrents - Upload Torrent - Stat - Forum - FAQ - Login
litoral-2008.info is in compliance with copyrights
2006-2018 litoral-2008.info