Damnation
Abenobashi Magical Shopping District
litoral-2008.info - The Largest Bittorent System Login   |    Register
Latest Articles
Most searched
Hot torrents
Movie Torrents
Hot torrents
TV Torrents
View Torrent Info: Arrow.S06E18.HDTV.x264-SVA[eztv]
View Torrent Info: Lethal.Weapon.S02E18.WEB.x264-TBS[eztv]
View Torrent Info: Supernatural.S13E18.HDTV.x264-SVA[eztv]
View Torrent Info: Young.Sheldon.S01E18.HDTV.x264-SVA[eztv]
View Torrent Info: Black.Lightning.S01E12.HDTV.x264-SVA[eztv]
View Torrent Info: Hawaii.Five-0.2010.S08E20.HDTV.x264-LOL[eztv]
View Torrent Info: Scandal.US.S07E17.HDTV.x264-SVA[eztv]
View Torrent Info: DCs.Legends.of.Tomorrow.S03E18.HDTV.x264-SVA[eztv]
View Torrent Info: Gotham.S04E18.WEB.x264-TBS[eztv]
View Torrent Info: Chicago.Fire.S06E18.HDTV.x264-SVA[eztv]
litoral-2008.info > Categories > Movies torrents > Dubbed /Dual Audio torrents


Browse Movies torrents

The Raid: Redemption (2011) (1080p x265 HEVC 10bit AAC 5.1 Dual Audio) [Prof] torrent



Download torrent: Download The Raid: Redemption (2011) (1080p x265 HEVC 10bit AAC 5.1 Dual Audio) [Prof] torrent Magnet link Bookmark Torrent: The Raid: Redemption (2011) (1080p x265 HEVC 10bit AAC 5.1 Dual Audio) [Prof] The Raid: Redemption (2011) (1080p x265 HEVC 10bit AAC 5.1 Dual Audio) [Prof] torrent | if not working, try instead: Magnet Link
Info hash: E08DC97C74B8C046C90AB91E9AEC41B5DD884776
Category: Categories > Movies torrents > Dubbed /Dual Audio torrents
Trackers:
4    View all torrent trackers >
Health:
 seeds: 4 ,  leechers: 0 |  Update >
Total Size: 4.50 GB
Torrent status: Added by trusted uploader Added by trusted uploader Trusted Uploader Site Friend Superman Sun
Uploader: Trusted Uploader Site Friend Superman Sun
Torrent added: 2018-04-14 21:16:05
 

Download The Raid: Redemption (2011) (1080p x265 HEVC 10bit AAC 5.1 Dual Audio) [Prof] torrent if not working, try downloading torrent using Download The Raid: Redemption (2011) (1080p x265 HEVC 10bit AAC 5.1 Dual Audio) [Prof] via Magnet Link




Torrent Description

Format : Matroska
Format version : Version 4 / Version 2
File size : 4.49 GiB
Duration : 1 h 41 min
Overall bit rate : 6 364 kb/s
Movie name : The Raid: Redemption
Encoded date : UTC 2018-04-14 00:04:20
Writing application : mkvmerge v9.6.0 ('Slave To Your Mind') 64bit
Writing library : libebml v1.3.4 + libmatroska v1.4.5

Video
ID : 1
Format : HEVC
Format/Info : High Efficiency Video Coding
Format profile : Main [email protected]@Main
Codec ID : V_MPEGH/ISO/HEVC
Duration : 1 h 41 min
Bit rate : 4 711 kb/s
Width : 1 920 pixels
Height : 1 080 pixels
Display aspect ratio : 16:9
Frame rate mode : Constant
Frame rate : 23.976 (24000/1001) FPS
Color space : YUV
Chroma subsampling : 4:2:0
Bit depth : 10 bits
Bits/(Pixel*Frame) : 0.095
Stream size : 3.33 GiB (74%)
Writing library : x265 2.1+69-c97c64ab8b8e:[Windows][GCC 6.2.0][64 bit] 10bit
Encoding settings : cpuid=1173503 / frame-threads=2 / numa-pools=4 / wpp / no-pmode / no-pme / no-psnr / no-ssim / log-level=2 / input-csp=1 / input-res=1920x1080 / interlace=0 / total-frames=145393 / level-idc=0 / high-tier=1 / uhd-bd=0 / ref=4 / no-allow-non-conformance / no-repeat-headers / annexb / no-aud / no-hrd / info / hash=0 / no-temporal-layers / open-gop / min-keyint=23 / keyint=250 / bframes=4 / b-adapt=2 / b-pyramid / bframe-bias=0 / rc-lookahead=25 / lookahead-slices=4 / scenecut=40 / no-intra-refresh / ctu=64 / min-cu-size=8 / rect / no-amp / max-tu-size=32 / tu-inter-depth=1 / tu-intra-depth=1 / limit-tu=0 / rdoq-level=2 / signhide / no-tskip / nr-intra=0 / nr-inter=0 / no-constrained-intra / strong-intra-smoothing / max-merge=3 / limit-refs=3 / limit-modes / me=3 / subme=3 / merange=57 / temporal-mvp / weightp / no-weightb / no-analyze-src-pics / deblock=0:0 / sao / no-sao-non-deblock / rd=4 / no-early-skip / rskip / no-fast-intra / no-tskip-fast / no-cu-lossless / no-b-intra / rdpenalty=0 / psy-rd=2.00 / psy-rdoq=1.00 / no-rd-refine / analysis-mode=0 / no-lossless / cbqpoffs=0 / crqpoffs=0 / rc=crf / crf=18.0 / qcomp=0.60 / qpstep=4 / stats-write=0 / stats-read=0 / ipratio=1.40 / pbratio=1.30 / aq-mode=1 / aq-strength=1.00 / cutree / zone-count=0 / no-strict-cbr / qg-size=32 / no-rc-grain / qpmax=69 / qpmin=0 / sar=0 / overscan=0 / videoformat=5 / range=0 / colorprim=2 / transfer=2 / colormatrix=2 / chromaloc=0 / display-window=0 / max-cll=0,0 / min-luma=0 / max-luma=1023 / log2-max-poc-lsb=8 / vui-timing-info / vui-hrd-info / slices=1 / opt-qp-pps / opt-ref-list-length-pps / no-multi-pass-opt-rps / scenecut-bias=0.05
Default : Yes
Forced : No

Audio #1
ID : 2
Format : AAC
Format/Info : Advanced Audio Codec
Format profile : LC
Codec ID : A_AAC
Duration : 1 h 41 min
Bit rate : 946 kb/s
Channel(s) : 6 channels
Channel positions : Front: L C R, Side: L R, LFE
Sampling rate : 48.0 kHz
Frame rate : 46.875 FPS (1024 spf)
Compression mode : Lossy
Delay relative to video : 9 ms
Stream size : 684 MiB (15%)
Language : English
Default : Yes
Forced : No

Audio #2
ID : 3
Format : AAC
Format/Info : Advanced Audio Codec
Format profile : LC
Codec ID : A_AAC
Duration : 1 h 41 min
Bit rate : 662 kb/s
Channel(s) : 6 channels
Channel positions : Front: L C R, Side: L R, LFE
Sampling rate : 48.0 kHz
Frame rate : 46.875 FPS (1024 spf)
Compression mode : Lossy
Delay relative to video : 9 ms
Stream size : 481 MiB (10%)
Language : Indonesian
Default : No
Forced : No

Text #1
ID : 4
Format : PGS
Muxing mode : zlib
Codec ID : S_HDMV/PGS
Codec ID/Info : Picture based subtitle format used on BDs/HD-DVDs
Duration : 1 h 40 min
Bit rate : 4 450 b/s
Count of elements : 1372
Stream size : 3.20 MiB (0%)
Language : English
Default : No
Forced : No

Text #2
ID : 5
Format : PGS
Muxing mode : zlib
Codec ID : S_HDMV/PGS
Codec ID/Info : Picture based subtitle format used on BDs/HD-DVDs
Duration : 1 h 34 min
Bit rate : 5 943 b/s
Count of elements : 1043
Stream size : 4.02 MiB (0%)
Language : English
Default : No
Forced : No

Text #3
ID : 6
Format : PGS
Muxing mode : zlib
Codec ID : S_HDMV/PGS
Codec ID/Info : Picture based subtitle format used on BDs/HD-DVDs
Duration : 1 h 36 min
Bit rate : 30.1 kb/s
Count of elements : 3389
Stream size : 20.8 MiB (0%)
Language : English
Default : No
Forced : No

Menu
00:00:00.000 : en:Chapter 01
00:06:15.708 : en:Chapter 02
00:12:36.380 : en:Chapter 03
00:17:37.765 : en:Chapter 04
00:22:46.031 : en:Chapter 05
00:27:06.916 : en:Chapter 06
00:32:45.880 : en:Chapter 07
00:37:27.495 : en:Chapter 08
00:42:37.888 : en:Chapter 09
00:48:49.927 : en:Chapter 10
00:55:16.104 : en:Chapter 11
00:59:58.720 : en:Chapter 12
01:05:15.828 : en:Chapter 13
01:10:53.332 : en:Chapter 14
01:16:29.167 : en:Chapter 15
01:30:09.779 : en:Chapter 16



#Prof -> To avoid fakes, ALWAYS check that the torrent was added on litoral-2008.info by Prof

http://litoral-2008.info/



Download The Raid: Redemption (2011) (1080p x265 HEVC 10bit AAC 5.1 Dual Audio) [Prof] torrent


Comments (please add your comment)
No comments



Home - Browse Torrents - Upload Torrent - Stat - Forum - FAQ - Login
litoral-2008.info is in compliance with copyrights
2006-2018 litoral-2008.info