Pitbull I Know You Want Me
Lost Love in Times (Cantonese) - 醉玲瓏Lost Love in Times (Cantonese)
litoral-2008.info - The Largest Bittorent System Login   |    Register
Latest Articles
Most searched
Hot torrents
Movie Torrents
Hot torrents
TV Torrents
View Torrent Info: Arrow.S06E18.HDTV.x264-SVA[eztv]
View Torrent Info: Lethal.Weapon.S02E18.WEB.x264-TBS[eztv]
View Torrent Info: Supernatural.S13E18.HDTV.x264-SVA[eztv]
View Torrent Info: Young.Sheldon.S01E18.HDTV.x264-SVA[eztv]
View Torrent Info: Black.Lightning.S01E12.HDTV.x264-SVA[eztv]
View Torrent Info: Hawaii.Five-0.2010.S08E20.HDTV.x264-LOL[eztv]
View Torrent Info: Scandal.US.S07E17.HDTV.x264-SVA[eztv]
View Torrent Info: DCs.Legends.of.Tomorrow.S03E18.HDTV.x264-SVA[eztv]
View Torrent Info: Gotham.S04E18.WEB.x264-TBS[eztv]
View Torrent Info: Chicago.Fire.S06E18.HDTV.x264-SVA[eztv]
litoral-2008.info > Categories > Movies torrents > Dubbed /Dual Audio torrents


Browse Movies torrents

Rampage (2018) HDCAM x264 Dual Audio Hindi-English ~ Ranvijay torrent



Download torrent: Download Rampage (2018) HDCAM x264 Dual Audio Hindi-English ~ Ranvijay torrent Magnet link Bookmark Torrent: Rampage (2018) HDCAM x264 Dual Audio Hindi-English ~ Ranvijay Rampage (2018) HDCAM x264 Dual Audio Hindi-English ~ Ranvijay torrent | if not working, try instead: Magnet Link
Info hash: 09C5F77C513A0F7EE1B269A129039E5612D1E17C
Category: Categories > Movies torrents > Dubbed /Dual Audio torrents
Trackers:
36    View all torrent trackers >
Health:
 seeds: 0 ,  leechers: 0 |  Update >
Total Size: 1.10 GB
Torrent status: Added by trusted uploader Added by trusted uploader Trusted Uploader Site Friend Superman Sun
Uploader: Trusted Uploader Site Friend Superman Sun
Torrent added: 2018-04-14 21:15:58
 

Download Rampage (2018) HDCAM x264 Dual Audio Hindi-English ~ Ranvijay torrent if not working, try downloading torrent using Download Rampage (2018) HDCAM x264 Dual Audio Hindi-English ~ Ranvijay via Magnet Link




Torrent Description



Format                                   : Matroska
Format version                           : Version 4 / Version 2
File size                                : 1.09 GiB
Duration                                 : 1 h 39 min
Overall bit rate                         : 1 567 kb/s
Movie name                               : Rampage (2018) HDCAM x264 Dual Audio Hindi-English ~ Ranvijay

Video
Duration                                 : 1 h 39 min
Bit rate                                 : 1 049 kb/s
Width                                    : 720 pixels
Height                                   : 364 pixels
Stream size                              : 752 MiB (67%)
Title                                    : ~Ranvijay~

Audio #1
Format                                   : AC-3
Format/Info                              : Audio Coding 3
Codec ID                                 : A_AC3
Duration                                 : 1 h 39 min
Bit rate mode                            : Constant
Bit rate                                 : 384 kb/s
Channel(s)                               : 6 channels
Channel positions                        : Front: L C R, Side: L R, LFE
Sampling rate                            : 48.0 kHz
Frame rate                               : 31.250 FPS (1536 SPF)
Bit depth                                : 16 bits
Compression mode                         : Lossy
Stream size                              : 274 MiB (25%)
Title                                    : ~Ranvijay~
Language                                 : English

Audio #2
Format                                   : AAC
Format/Info                              : Advanced Audio Codec
Format profile                           : LC
Codec ID                                 : A_AAC-2
Duration                                 : 1 h 39 min
Bit rate                                 : 125 kb/s
Channel(s)                               : 2 channels
Channel positions                        : Front: L R
Sampling rate                            : 48.0 kHz
Frame rate                               : 46.875 FPS (1024 SPF)
Compression mode                         : Lossy
Delay relative to video                  : 23 s 0 ms
Stream size                              : 88.7 MiB (8%)
Title                                    : ~Ranvijay~
Language                                 : Hindi













#TheFighter -> To avoid fakes, ALWAYS check that the torrent was added on litoral-2008.info by TheFighter

http://litoral-2008.info/



Download Rampage (2018) HDCAM x264 Dual Audio Hindi-English ~ Ranvijay torrent


Comments (please add your comment)
No comments



Home - Browse Torrents - Upload Torrent - Stat - Forum - FAQ - Login
litoral-2008.info is in compliance with copyrights
2006-2018 litoral-2008.info