UFC 224 : Amanda Nunes vs Raquel Pennington Live Stream - WWE
Download: Summertime Sadness - Lana Del Rey (fingerstyle guitar cover by Peter Gergely).mp3
litoral-2008.info - The Largest Bittorent System Login   |    Register
Latest Articles
Most searched
Hot torrents
Movie Torrents
Hot torrents
TV Torrents
View Torrent Info: Arrow.S06E18.HDTV.x264-SVA[eztv]
View Torrent Info: Lethal.Weapon.S02E18.WEB.x264-TBS[eztv]
View Torrent Info: Supernatural.S13E18.HDTV.x264-SVA[eztv]
View Torrent Info: Young.Sheldon.S01E18.HDTV.x264-SVA[eztv]
View Torrent Info: Black.Lightning.S01E12.HDTV.x264-SVA[eztv]
View Torrent Info: Hawaii.Five-0.2010.S08E20.HDTV.x264-LOL[eztv]
View Torrent Info: Scandal.US.S07E17.HDTV.x264-SVA[eztv]
View Torrent Info: DCs.Legends.of.Tomorrow.S03E18.HDTV.x264-SVA[eztv]
View Torrent Info: Gotham.S04E18.WEB.x264-TBS[eztv]
View Torrent Info: Chicago.Fire.S06E18.HDTV.x264-SVA[eztv]
litoral-2008.info > Categories > Movies torrents > Dubbed /Dual Audio torrents


Browse Movies torrents

Bhaagamathie (2018) [Telugu + Tamil] Movie HDRip x264 AC3 by Full4movies mkv torrent



Download torrent: Download Bhaagamathie (2018) [Telugu + Tamil] Movie HDRip x264 AC3 by Full4movies mkv torrent Magnet link Bookmark Torrent: Bhaagamathie (2018) [Telugu + Tamil] Movie HDRip x264 AC3 by Full4movies mkv Bhaagamathie (2018) [Telugu + Tamil] Movie HDRip x264 AC3 by Full4movies mkv torrent | if not working, try instead: Magnet Link
Info hash: 284EF10594C3B2AB46F193FD382839CC0979F94D
Category: Categories > Movies torrents > Dubbed /Dual Audio torrents
Trackers:
12    View all torrent trackers >
Health:
 seeds: 2 ,  leechers: 4 |  Update >
Total Size: 1.50 GB
Torrent status: Added by trusted uploader Added by trusted uploader Trusted Uploader Site Friend Superman Sun
Uploader: Trusted Uploader Site Friend Superman Sun
Torrent added: 2018-04-14 19:38:55
 

Download Bhaagamathie (2018) [Telugu + Tamil] Movie HDRip x264 AC3 by Full4movies mkv torrent if not working, try downloading torrent using Download Bhaagamathie (2018) [Telugu + Tamil] Movie HDRip x264 AC3 by Full4movies mkv via Magnet Link




Torrent Description



General
Complete name                  : Bhaagamathie (2018) [Telugu + Tamil] Movie HDRip x264 AC3 by Full4movies.mkv
Format                         : Matroska
Format version                 : Version 4 / Version 2
File size                      : 1.48 GiB
Duration                       : 2 h 17 min
Overall bit rate mode          : Variable
Overall bit rate               : 1 541 kb/s
Movie name                     : Bhaagamathie (2018)
Encoded date                   : UTC 2018-04-14 17:08:02
Writing application            : mkvmerge v8.1.0 ('Psychedelic Postcard') 32bit
Writing library                : libebml v1.3.1 + libmatroska v1.4.2

Video
ID                             : 1
Format                         : AVC
Format/Info                    : Advanced Video Codec
Format profile                 : [email protected]
Format settings, CABAC         : Yes
Format settings, RefFrames     : 4 frames
Codec ID                       : V_MPEG4/ISO/AVC
Duration                       : 2 h 17 min
Bit rate                       : 1 348 kb/s
Width                          : 1 280 pixels
Height                         : 544 pixels
Display aspect ratio           : 2.35:1
Frame rate mode                : Constant
Frame rate                     : 30.000 FPS
Color space                    : YUV
Chroma subsampling             : 4:2:0
Bit depth                      : 8 bits
Scan type                      : Progressive
Bits/(Pixel*Frame)             : 0.065
Stream size                    : 1.30 GiB (88%)
Title                          : Full4movies.co
Writing library                : x264 core 152 r2851 ba24899
Language                       : Telugu
Default                        : Yes
Forced                         : No

Audio #1
ID                             : 2
Format                         : MPEG Audio
Format version                 : Version 1
Format profile                 : Layer 3
Mode                           : Joint stereo
Mode extension                 : MS Stereo
Codec ID                       : A_MPEG/L3
Codec ID/Hint                  : MP3
Duration                       : 2 h 17 min
Bit rate mode                  : Variable
Bit rate                       : 96.0 kb/s
Channel(s)                     : 2 channels
Sampling rate                  : 44.1 kHz
Frame rate                     : 38.281 FPS (1152 SPF)
Compression mode               : Lossy
Stream size                    : 93.9 MiB (6%)
Writing library                : LAME3.99r
Encoding settings              : -m j -V 4 -q 3 -lowpass 15.1 --abr 96
Language                       : Telugu
Default                        : Yes
Forced                         : No

Audio #2
ID                             : 3
Format                         : MPEG Audio
Format version                 : Version 1
Format profile                 : Layer 3
Mode                           : Joint stereo
Mode extension                 : MS Stereo
Codec ID                       : A_MPEG/L3
Codec ID/Hint                  : MP3
Duration                       : 2 h 17 min
Bit rate mode                  : Variable
Bit rate                       : 96.0 kb/s
Channel(s)                     : 2 channels
Sampling rate                  : 44.1 kHz
Frame rate                     : 38.281 FPS (1152 SPF)
Compression mode               : Lossy
Stream size                    : 92.5 MiB (6%)
Writing library                : LAME3.99r
Encoding settings              : -m j -V 4 -q 3 -lowpass 15.1 --abr 96
Language                       : Tamil
Default                        : No
Forced                         : No

Screen Shoots



#shmasti -> To avoid fakes, ALWAYS check that the torrent was added on litoral-2008.info by shmasti

http://litoral-2008.info/



Download Bhaagamathie (2018) [Telugu + Tamil] Movie HDRip x264 AC3 by Full4movies mkv torrent


Comments (please add your comment)
No comments



Home - Browse Torrents - Upload Torrent - Stat - Forum - FAQ - Login
litoral-2008.info is in compliance with copyrights
2006-2018 litoral-2008.info