The Weeknd, Kendrick Lamar
1x12 Kakegurui
litoral-2008.info - The Largest Bittorent System Login   |    Register
Latest Articles
Most searched
Hot torrents
Movie Torrents
Hot torrents
TV Torrents
View Torrent Info: Arrow.S06E18.HDTV.x264-SVA[eztv]
View Torrent Info: Lethal.Weapon.S02E18.WEB.x264-TBS[eztv]
View Torrent Info: Supernatural.S13E18.HDTV.x264-SVA[eztv]
View Torrent Info: Young.Sheldon.S01E18.HDTV.x264-SVA[eztv]
View Torrent Info: Black.Lightning.S01E12.HDTV.x264-SVA[eztv]
View Torrent Info: Hawaii.Five-0.2010.S08E20.HDTV.x264-LOL[eztv]
View Torrent Info: Scandal.US.S07E17.HDTV.x264-SVA[eztv]
View Torrent Info: DCs.Legends.of.Tomorrow.S03E18.HDTV.x264-SVA[eztv]
View Torrent Info: Gotham.S04E18.WEB.x264-TBS[eztv]
View Torrent Info: Chicago.Fire.S06E18.HDTV.x264-SVA[eztv]
litoral-2008.info > Categories > Movies torrents > Dubbed /Dual Audio torrents


Browse Movies torrents

Pain & Gain (2013) 1080p BluRay x264 Dual Audio [Hindi DD5.1 - English DD5.1] - Esubs ~ Ranvijay torrent



Download torrent: Download Pain & Gain (2013) 1080p BluRay x264 Dual Audio [Hindi DD5.1 - English DD5.1] - Esubs ~ Ranvijay torrent Magnet link Bookmark Torrent: Pain & Gain (2013) 1080p BluRay x264 Dual Audio [Hindi DD5.1 - English DD5.1] - Esubs ~ Ranvijay Pain & Gain (2013) 1080p BluRay x264 Dual Audio [Hindi DD5.1 - English DD5.1] - Esubs ~ Ranvijay torrent | if not working, try instead: Magnet Link
Info hash: 9A4A585B0B4DB0515C4F4DA85D7C1104CB795D36
Category: Categories > Movies torrents > Dubbed /Dual Audio torrents
Trackers:
36    View all torrent trackers >
Health:
 seeds: 10 ,  leechers: 10 |  Update >
Total Size: 3.10 GB
Torrent status: Added by trusted uploader Added by trusted uploader Trusted Uploader Site Friend Superman Sun
Uploader: Trusted Uploader Site Friend Superman Sun
Torrent added: 2018-04-14 13:11:35
 

Download Pain & Gain (2013) 1080p BluRay x264 Dual Audio [Hindi DD5.1 - English DD5.1] - Esubs ~ Ranvijay torrent if not working, try downloading torrent using Download Pain & Gain (2013) 1080p BluRay x264 Dual Audio [Hindi DD5.1 - English DD5.1] - Esubs ~ Ranvijay via Magnet Link




Torrent Description






Pain & Gain (2013) 1080p BluRay x264 Dual Audio [Hindi DD5.1 - English DD5.1] - Esubs ~ Ranvijay
Thanks For Hameer For Hindi Audio


Buy RDP Online


Format                                   : Matroska
Format version                           : Version 4 / Version 2
File size                                : 3.02 GiB
Duration                                 : 2 h 10 min
Overall bit rate                         : 3 320 kb/s
Movie name                               : Pain & Gain (2013) 1080p BluRay x264 Dual Audio [Hindi DD5.1 - English DD5.1] - Esubs ~ Ranvijay

Video
Duration                                 : 2 h 9 min
Bit rate                                 : 2 500 kb/s
Width                                    : 1 920 pixels
Height                                   : 800 pixels
Display aspect ratio                     : 2.40:1
Frame rate mode                          : Constant
Frame rate                               : 23.976 (24000/1001) FPS
Original frame rate                      : 23.976 (23976/1000) FPS
Stream size                              : 2.26 GiB (75%)
Title                                    : ~Ranvijay~
Default                                  : Yes
Forced                                   : No

Audio #1
ID                                       : 2
Format                                   : AC-3
Format/Info                              : Audio Coding 3
Codec ID                                 : A_AC3
Duration                                 : 2 h 10 min
Bit rate mode                            : Constant
Bit rate                                 : 384 kb/s
Channel(s)                               : 6 channels
Channel positions                        : Front: L C R, Side: L R, LFE
Sampling rate                            : 48.0 kHz
Frame rate                               : 31.250 FPS (1536 SPF)
Bit depth                                : 16 bits
Compression mode                         : Lossy
Stream size                              : 358 MiB (12%)
Title                                    : ~Ranvijay~
Language                                 : Hindi
Service kind                             : Complete Main
Default                                  : Yes
Forced                                   : No

Audio #2
ID                                       : 3
Format                                   : AC-3
Format/Info                              : Audio Coding 3
Codec ID                                 : A_AC3
Duration                                 : 2 h 9 min
Bit rate mode                            : Constant
Bit rate                                 : 448 kb/s
Channel(s)                               : 6 channels
Channel positions                        : Front: L C R, Side: L R, LFE
Sampling rate                            : 48.0 kHz
Frame rate                               : 31.250 FPS (1536 SPF)
Bit depth                                : 16 bits
Compression mode                         : Lossy
Stream size                              : 415 MiB (13%)
Title                                    : ~Ranvijay~
Language                                 : English
Service kind                             : Complete Main
Default                                  : No
Forced                                   : No

Text #1
ID                                       : 4
Format                                   : UTF-8
Codec ID                                 : S_TEXT/UTF8
Codec ID/Info                            : UTF-8 Plain Text
Duration                                 : 2 h 0 min
Bit rate                                 : 88 b/s
Count of elements                        : 2496
Stream size                              : 78.1 KiB (0%)
Title                                    : ~Ranvijay~
Language                                 : English
Default                                  : Yes
Forced                                   : No

Text #2
ID                                       : 5
Format                                   : UTF-8
Codec ID                                 : S_TEXT/UTF8
Codec ID/Info                            : UTF-8 Plain Text
Duration                                 : 2 h 1 min
Bit rate                                 : 96 b/s
Count of elements                        : 2751
Stream size                              : 85.9 KiB (0%)
Title                                    : ~Ranvijay~
Language                                 : English
Default                                  : No
Forced                                   : No















#TheFighter -> To avoid fakes, ALWAYS check that the torrent was added on litoral-2008.info by TheFighter

http://litoral-2008.info/



Download Pain & Gain (2013) 1080p BluRay x264 Dual Audio [Hindi DD5.1 - English DD5.1] - Esubs ~ Ranvijay torrent


Comments (please add your comment)
No comments



Home - Browse Torrents - Upload Torrent - Stat - Forum - FAQ - Login
litoral-2008.info is in compliance with copyrights
2006-2018 litoral-2008.info