encarniescot
AdwCleaner5113
litoral-2008.info - The Largest Bittorent System Login   |    Register
Latest Articles
Most searched
Hot torrents
Movie Torrents
Hot torrents
TV Torrents
View Torrent Info: Arrow.S06E18.HDTV.x264-SVA[eztv]
View Torrent Info: Lethal.Weapon.S02E18.WEB.x264-TBS[eztv]
View Torrent Info: Supernatural.S13E18.HDTV.x264-SVA[eztv]
View Torrent Info: Young.Sheldon.S01E18.HDTV.x264-SVA[eztv]
View Torrent Info: Black.Lightning.S01E12.HDTV.x264-SVA[eztv]
View Torrent Info: Hawaii.Five-0.2010.S08E20.HDTV.x264-LOL[eztv]
View Torrent Info: Scandal.US.S07E17.HDTV.x264-SVA[eztv]
View Torrent Info: DCs.Legends.of.Tomorrow.S03E18.HDTV.x264-SVA[eztv]
View Torrent Info: Gotham.S04E18.WEB.x264-TBS[eztv]
View Torrent Info: Chicago.Fire.S06E18.HDTV.x264-SVA[eztv]
litoral-2008.info > Categories > Movies torrents > Dubbed /Dual Audio torrents


Browse Movies torrents

Stardust (2007) 1080p BluRay x264 Dual Audio [Hindi DD5.1 - English DD5.1] - Esub ~Ranvijay torrent



Download torrent: Download Stardust (2007) 1080p BluRay x264 Dual Audio [Hindi DD5.1 - English DD5.1] - Esub ~Ranvijay torrent Magnet link Bookmark Torrent: Stardust (2007) 1080p BluRay x264 Dual Audio [Hindi DD5.1 - English DD5.1] - Esub ~Ranvijay Stardust (2007) 1080p BluRay x264 Dual Audio [Hindi DD5.1 - English DD5.1] - Esub ~Ranvijay torrent | if not working, try instead: Magnet Link
Info hash: 24242B9A822FF2D4839318244FD0F4869598DEFF
Category: Categories > Movies torrents > Dubbed /Dual Audio torrents
Trackers:
36    View all torrent trackers >
Health:
 seeds: 72 ,  leechers: 453 |  Update >
Total Size: 4.70 GB
Torrent status: Added by trusted uploader Added by trusted uploader Trusted Uploader Site Friend Superman Sun
Uploader: Trusted Uploader Site Friend Superman Sun
Torrent added: 2018-04-14 12:10:47
 

Download Stardust (2007) 1080p BluRay x264 Dual Audio [Hindi DD5.1 - English DD5.1] - Esub ~Ranvijay torrent if not working, try downloading torrent using Download Stardust (2007) 1080p BluRay x264 Dual Audio [Hindi DD5.1 - English DD5.1] - Esub ~Ranvijay via Magnet Link




Torrent Description

[code]




Stardust (2007) 1080p BluRay x264 Dual Audio [Hindi DD5.1 - English DD5.1] - Esub ~Ranvijay

Thanks To Hammer For Hindi Audio


Buy RDP Online


Format                                   : Matroska
Format version                           : Version 4 / Version 2
File size                                : 4.72 GiB
Duration                                 : 2 h 8 min
Overall bit rate                         : 5 274 kb/s
Movie name                               : Stardust (2007) 1080p BluRay x264 Dual Audio [Hindi DD5.1 - English DD5.1] - Esub ~Ranvijay

Video
Duration                                 : 2 h 7 min
Bit rate                                 : 4 453 kb/s
Width                                    : 1 920 pixels
Height                                   : 798 pixels
Display aspect ratio                     : 2.40:1
Frame rate mode                          : Constant
Frame rate                               : 23.976 (24000/1001) FPS
Stream size                              : 3.97 GiB (84%)
Title                                    : ~Ranvijay~
Language                                 : English
Default                                  : Yes
Forced                                   : No

Audio #1
ID                                       : 3
Format                                   : AC-3
Format/Info                              : Audio Coding 3
Codec ID                                 : A_AC3
Duration                                 : 2 h 8 min
Bit rate mode                            : Constant
Bit rate                                 : 384 kb/s
Channel(s)                               : 6 channels
Channel positions                        : Front: L C R, Side: L R, LFE
Sampling rate                            : 48.0 kHz
Frame rate                               : 31.250 FPS (1536 SPF)
Bit depth                                : 16 bits
Compression mode                         : Lossy
Delay relative to video                  : 1 s 100 ms
Stream size                              : 352 MiB (7%)
Title                                    : ~Ranvijay~
Language                                 : Hindi
Service kind                             : Complete Main
Default                                  : Yes
Forced                                   : No

Audio #2
ID                                       : 4
Format                                   : AC-3
Format/Info                              : Audio Coding 3
Codec ID                                 : A_AC3
Duration                                 : 2 h 7 min
Bit rate mode                            : Constant
Bit rate                                 : 448 kb/s
Channel(s)                               : 6 channels
Channel positions                        : Front: L C R, Side: L R, LFE
Sampling rate                            : 48.0 kHz
Frame rate                               : 31.250 FPS (1536 SPF)
Bit depth                                : 16 bits
Compression mode                         : Lossy
Stream size                              : 409 MiB (8%)
Title                                    : ~Ranvijay~
Language                                 : English
Service kind                             : Complete Main
Default                                  : No
Forced                                   : No

Text
ID                                       : 2
Format                                   : UTF-8
Codec ID                                 : S_TEXT/UTF8
Codec ID/Info                            : UTF-8 Plain Text
Duration                                 : 2 h 0 min
Bit rate                                 : 51 b/s
Count of elements                        : 1224
Stream size                              : 44.9 KiB (0%)
Title                                    : ~Ranvijay~
Language                                 : English
Default                                  : Yes
Forced                                   : No

Menu
00:00:00.000                             : :Chapter  1
00:07:29.157                             : :Chapter  2
00:15:59.917                             : :Chapter  3
00:23:14.726                             : :Chapter  4
00:30:02.759                             : :Chapter  5
00:38:16.460                             : :Chapter  6
00:44:41.512                             : :Chapter  7
00:51:01.933                             : :Chapter  8
00:56:46.111                             : :Chapter  9
01:04:10.847                             : :Chapter 10
01:11:55.269                             : :Chapter 11
01:18:28.078                             : :Chapter 12
01:25:06.476                             : :Chapter 13
01:33:36.193                             : :Chapter 14
01:42:08.372                             : :Chapter 15
01:49:02.577                             : :Chapter 16
01:55:44.729                             : :Chapter 17
02:00:49.450                             : :Chapter 18











[/center]



#TheFighter -> To avoid fakes, ALWAYS check that the torrent was added on litoral-2008.info by TheFighter

http://litoral-2008.info/



Download Stardust (2007) 1080p BluRay x264 Dual Audio [Hindi DD5.1 - English DD5.1] - Esub ~Ranvijay torrent


Comments (please add your comment)
No comments



Home - Browse Torrents - Upload Torrent - Stat - Forum - FAQ - Login
litoral-2008.info is in compliance with copyrights
2006-2018 litoral-2008.info